Nameless One (nameless__one) wrote,
Nameless One
nameless__one

Video-transcoding - люди добрые, поможите кто чем может!

У меня есть несколько сотен видео-роликов из фотоаппарата Lumix DMC-FX55. Ролики - в QuickTime. Формат не самый удобный, но до некоторого времени это меня не особо напрягало - моя Corel Video-Studio их заглатывала - и ладно.

Но тут обнаружился неприятный момент - медиастример WD TV их играть не хочет. При том что обычное QuickTime видео (из других источников) - воспроизводит без проблем. То бишь там хоть и QuickTime, но не совсем стандартный.

Естественное решение - напустить на этот архив какой-нибудь транскодер и загнать всё в потоковом режиме в H.264 и скажем MKV. Но вот тут-то и ждала засада. Пробовал свой любимый HandBrake с разными опциями - видео переваривает нормально, а звук выползает какой-то искажённый и прерывистый. Пробовал VLC - вообще не получается выковырять аудио-дорожку (тишина перекодированном ролике). Этот фэйл только ещё более убедил внеобходимости перекодировки - дабы не попасть на ту же проблему через несколько лет.

Медиа-инфо по файлу вот какое:


General
Complete name : F:\P1010976.MOV
Format : QuickTime
Format/Info : Original Apple specifications
File size : 44.1 MiB
Duration : 28s 500ms
Overall bit rate : 13.0 Mbps
Encoded date : UTC 2008-06-20 12:38:37
Tagged date : UTC 2008-06-20 12:38:37
Writing library : pana

Video
ID : 1
Format : M-JPEG
Codec ID : jpeg
Duration : 28s 500ms
Bit rate mode : Variable
Bit rate : 12.9 Mbps
Width : 848 pixels
Height : 480 pixels
Display aspect ratio : 16:9
Frame rate mode : Constant
Frame rate : 30.000 fps
Bits/(Pixel*Frame) : 1.057
Stream size : 43.8 MiB (99%)
Encoded date : UTC 2008-06-20 12:38:37
Tagged date : UTC 2008-06-20 12:38:37

Audio
ID : 2
Format : PCM
Format settings, Endianness : Little
Format settings, Sign : Unsigned
Codec ID : raw
Duration : 28s 500ms
Bit rate mode : Constant
Bit rate : 64.0 Kbps
Channel(s) : 1 channel
Sampling rate : 8 000 Hz
Resolution : 8 bits
Stream size : 223 KiB (0%)
Encoded date : UTC 2008-06-20 12:38:37
Tagged date : UTC 2008-06-20 12:38:37


Может кто чего дельного посоветует прям по этой информации.

Чего не хочется делать - скачивать и инсталлировать подряд дюжину транскодеров, а потом убеждаться что они проблему не решают.

А ежели вдруг найдётся добрый человек, который найдёт несколько минут, скачает файл, скормит своему транскодеру и ежели работает - даст эту информацию мне, то благодарность моя будет безгранична ("в пределах разумного").

Сэмпл-файл лежит тут:

http://rapidshare.com/files/269069450/P1010976.MOV.html
Tags: gadgets
Subscribe

  • Соль на рану.

    Чёртов FB издевательски подкидывает фото и записи с пасхальных путешествий прошлых лет. Калифорния/Невада, Сингапур/Малайзия, Япония, Исландия. 😡😡😡

  • Спортивные техно-фишки. Track Mode.

    Бегающие с GPS-часами люди знают что у них есть одна ахиллесова пята - запись бега по треку на стадионе. Бег по относительно небольшому кругу…

  • Ковидные хроники. Endgame.

    Я уже писал что больше всего меня в официальных действиях раздражает mission creep. Начиная с "трёхнедельного" локдауна прошлой весной "чтобы не…

  • Post a new comment

    Error

    default userpic

    Your reply will be screened

    Your IP address will be recorded 

    When you submit the form an invisible reCAPTCHA check will be performed.
    You must follow the Privacy Policy and Google Terms of use.
  • 7 comments